<?xml version="1.0" standalone="no"?>
<!DOCTYPE svg PUBLIC "-//W3C//DTD SVG 1.1//EN" "http://www.w3.org/Graphics/SVG/1.1/DTD/svg11.dtd" >
<svg xmlns="http://www.w3.org/2000/svg">
<metadata>Generated by IcoMoon</metadata>
<defs>
<font id="icons" horiz-adv-x="1024">
<font-face units-per-em="1024" ascent="960" descent="-64" />
<missing-glyph horiz-adv-x="1024" />
<glyph unicode="&#x20;" horiz-adv-x="512" d="" />
<glyph unicode="&#xe900;" glyph-name="cross" d="M886.656 822.658c2.98-2.972 5.345-6.503 6.958-10.392s2.442-8.055 2.442-12.264c0-4.209-0.829-8.377-2.442-12.264s-3.978-7.419-6.958-10.392l-704-704.002c-6.009-6.006-14.158-9.38-22.656-9.38s-16.648 3.374-22.656 9.38c-6.009 6.011-9.384 14.162-9.384 22.656 0 8.499 3.376 16.65 9.384 22.656l704 704.002c2.975 2.98 6.502 5.344 10.394 6.958 3.886 1.613 8.054 2.444 12.262 2.444s8.376-0.83 12.262-2.444c3.891-1.613 7.419-3.977 10.394-6.958zM137.344 822.658c-2.98-2.972-5.344-6.503-6.958-10.392s-2.443-8.055-2.443-12.264c0-4.209 0.83-8.377 2.443-12.264s3.978-7.419 6.958-10.392l704-704.002c6.011-6.006 14.157-9.38 22.656-9.38s16.645 3.374 22.656 9.38c6.011 6.011 9.385 14.162 9.385 22.656 0 8.499-3.374 16.65-9.385 22.656l-704 704.002c-2.972 2.98-6.503 5.344-10.391 6.958s-8.056 2.444-12.265 2.444c-4.209 0-8.377-0.83-12.264-2.444s-7.419-3.977-10.392-6.958z" />
<glyph unicode="&#xe901;" glyph-name="arrow-left" d="M960 448c0 8.487-3.369 16.627-9.375 22.628-6.001 6.001-14.136 9.372-22.625 9.372h-754.752l201.408 201.344c2.975 2.975 5.336 6.508 6.946 10.395s2.439 8.054 2.439 12.261c0 4.208-0.828 8.374-2.439 12.261s-3.971 7.419-6.946 10.395c-2.975 2.975-6.507 5.336-10.395 6.946s-8.054 2.439-12.261 2.439c-4.208 0-8.374-0.828-12.261-2.439s-7.419-3.971-10.395-6.946l-256-256c-2.98-2.972-5.344-6.503-6.958-10.391s-2.443-8.056-2.443-12.265c0-4.209 0.83-8.376 2.443-12.262 1.613-3.891 3.978-7.419 6.958-10.394l256-256c2.975-2.975 6.508-5.335 10.395-6.943 3.888-1.613 8.054-2.442 12.261-2.442s8.374 0.829 12.261 2.442c3.888 1.608 7.419 3.968 10.395 6.943s5.336 6.508 6.946 10.394c1.61 3.886 2.439 8.054 2.439 12.262s-0.828 8.376-2.439 12.262c-1.61 3.886-3.971 7.419-6.946 10.394l-201.408 201.344h754.752c8.489 0 16.625 3.374 22.625 9.375 6.006 6.001 9.375 14.136 9.375 22.625z" />
<glyph unicode="&#xe902;" glyph-name="no-eye" d="M854.973 240.768c108.867 97.152 169.027 207.232 169.027 207.232s-192 352-512 352c-61.466-0.211-122.237-13.019-178.56-37.632l49.28-49.344c41.436 15.094 85.18 22.868 129.28 22.976 135.68 0 248.253-74.752 330.752-157.248 39.7-39.916 75.295-83.72 106.24-130.752-3.712-5.565-7.808-11.715-12.483-18.432-21.437-30.72-53.12-71.68-93.757-112.323-10.563-10.557-21.571-20.987-33.091-31.104l45.312-45.373zM723.005 372.736c14.285 39.946 16.932 83.129 7.629 124.519-9.298 41.391-30.162 79.289-60.16 109.286s-67.896 50.86-109.286 60.159c-41.39 9.3-84.57 6.655-124.516-7.627l52.672-52.672c24.596 3.52 49.674 1.264 73.247-6.59s44.989-21.090 62.561-38.659c17.567-17.569 30.802-38.988 38.656-62.561s10.112-48.65 6.595-73.248l52.603-52.608zM534.656 289.603l52.608-52.608c-39.946-14.28-83.127-16.927-124.517-7.629-41.391 9.303-79.289 30.162-109.287 60.16s-50.859 67.896-60.159 109.286c-9.3 41.39-6.655 84.572 7.627 124.518l52.672-52.672c-3.521-24.594-1.264-49.672 6.589-73.244s21.090-44.995 38.659-62.561c17.569-17.572 38.989-30.807 62.561-38.661s48.65-10.112 73.246-6.589zM214.4 609.921c-11.52-10.241-22.592-20.609-33.152-31.169-39.703-39.916-75.295-83.72-106.24-130.752l12.48-18.432c21.44-30.72 53.12-71.68 93.76-112.317 82.496-82.499 195.136-157.251 330.752-157.251 45.824 0 88.96 8.515 129.28 23.040l49.28-49.408c-56.325-24.612-117.094-37.417-178.56-37.632-320 0-512 352-512 352s60.096 110.144 169.024 207.232l45.312-45.376 0.064 0.065zM873.344 41.344l-768 768 45.312 45.312 768-768-45.312-45.312z" />
<glyph unicode="&#xe903;" glyph-name="eye" d="M1024 448c0 0-192 352-512 352s-512-352-512-352c0 0 192-352 512-352s512 352 512 352zM75.072 448c30.945 47.032 66.537 90.836 106.24 130.752 82.368 82.496 195.008 157.248 330.688 157.248s248.259-74.752 330.752-157.248c39.7-39.916 75.295-83.72 106.24-130.752-3.712-5.565-7.808-11.715-12.477-18.432-21.443-30.72-53.125-71.68-93.763-112.323-82.493-82.493-195.133-157.245-330.752-157.245-135.68 0-248.256 74.752-330.752 157.245-39.703 39.921-75.295 83.722-106.24 130.755h0.064zM512 608c-42.435 0-83.131-16.857-113.137-46.863s-46.863-70.703-46.863-113.137c0-42.435 16.857-83.133 46.863-113.137 30.006-30.008 70.703-46.863 113.137-46.863s83.133 16.855 113.137 46.863c30.008 30.003 46.863 70.702 46.863 113.137s-16.855 83.131-46.863 113.137c-30.003 30.006-70.702 46.863-113.137 46.863zM288 448c0 59.408 23.6 116.384 65.608 158.392s98.983 65.608 158.392 65.608c59.407 0 116.383-23.6 158.392-65.608s65.608-98.983 65.608-158.392c0-59.407-23.598-116.383-65.608-158.392s-98.985-65.608-158.392-65.608c-59.408 0-116.384 23.598-158.392 65.608s-65.608 98.985-65.608 158.392z" />
<glyph unicode="&#xe904;" glyph-name="error" d="M1024 448c0-135.789-53.946-266.022-149.958-362.042-96.019-96.013-226.253-149.958-362.042-149.958-135.791 0-266.020 53.946-362.038 149.958-96.019 96.019-149.962 226.253-149.962 362.042 0 135.791 53.943 266.020 149.962 362.038s226.248 149.962 362.038 149.962c135.789 0 266.022-53.943 362.042-149.962 96.013-96.019 149.958-226.248 149.958-362.038zM512 704c-8.089-0.004-16.088-1.704-23.48-4.988s-14.015-8.080-19.442-14.079c-5.426-5.999-9.535-13.068-12.064-20.753s-3.418-15.812-2.614-23.861l22.4-224.448c0.753-8.817 4.787-17.031 11.305-23.017s15.046-9.306 23.895-9.306c8.849 0 17.377 3.321 23.895 9.306s10.552 14.2 11.305 23.017l22.4 224.448c0.804 8.049-0.086 16.177-2.614 23.861s-6.637 14.753-12.063 20.753c-5.427 5.999-12.049 10.795-19.442 14.079s-15.391 4.983-23.48 4.988zM512.128 320c-16.974 0-33.252-6.746-45.255-18.746s-18.745-28.282-18.745-45.254c0-16.973 6.743-33.254 18.745-45.254s28.281-18.746 45.255-18.746c16.974 0 33.252 6.746 45.255 18.746s18.745 28.282 18.745 45.254c0 16.973-6.743 33.254-18.745 45.254s-28.281 18.746-45.255 18.746z" />
<glyph unicode="&#xe905;" glyph-name="bucket" d="M161.418 640.004h-33.408c-4.6-0.004-9.145-1.001-13.325-2.921s-7.897-4.719-10.898-8.205c-3-3.487-5.214-7.579-6.49-11.999s-1.584-9.062-0.903-13.612l87.808-585.536c3.415-22.716 14.864-43.456 32.268-58.453s39.607-23.253 62.58-23.275h465.79c22.985 0.004 45.205 8.256 62.622 23.253s28.877 35.746 32.29 58.475l87.872 585.536c0.683 4.55 0.375 9.192-0.9 13.612s-3.49 8.512-6.49 11.999c-3.004 3.486-6.72 6.285-10.901 8.205-4.177 1.92-8.725 2.916-13.325 2.921h-33.408c-7.855 87.56-48.188 169.011-113.071 228.332-64.879 59.321-149.606 92.216-237.521 92.216-87.91 0-172.639-32.896-237.52-92.216s-105.216-140.772-113.071-228.332zM225.738 640.004c7.824 70.445 41.35 135.531 94.161 182.801s121.201 73.408 192.079 73.408c70.878 0 139.264-26.136 192.077-73.408s86.34-112.357 94.161-182.801h-572.478zM858.825 576.004l-82.304-548.736c-1.131-7.578-4.945-14.494-10.748-19.499-5.803-5.001-13.205-7.757-20.868-7.765h-465.854c-7.661 0.009-15.065 2.765-20.867 7.765-5.801 5.005-9.616 11.921-10.749 19.499l-82.304 548.736h693.694z" />
<glyph unicode="&#xe906;" glyph-name="heart" d="M511.991 737.551l-45.888 48.216c-107.71 113.18-305.214 74.123-376.51-68.17-33.472-66.927-41.024-163.555 20.096-286.877 58.88-118.741 181.376-260.966 402.302-415.885 220.928 154.918 343.36 297.143 402.304 415.885 61.12 123.387 53.632 219.95 20.096 286.877-71.296 142.293-268.8 181.415-376.512 68.236l-45.888-48.282zM511.991-64c-981.312 662.856-302.142 1180.213-11.264 906.553 3.84-3.598 7.616-7.327 11.264-11.187 3.614 3.857 7.369 7.567 11.264 11.122 290.816 273.856 970.048-243.566-11.264-906.487z" />
<glyph unicode="&#xe907;" glyph-name="person" d="M512 448c67.895 0 133.009 26.97 181.018 74.982 48.013 48.008 74.982 113.122 74.982 181.018s-26.97 133.010-74.982 181.019c-48.009 48.009-113.122 74.981-181.018 74.981s-133.010-26.971-181.019-74.981c-48.009-48.009-74.981-113.124-74.981-181.019s26.971-133.010 74.981-181.018c48.009-48.013 113.124-74.982 181.019-74.982zM682.667 704c0-45.264-17.98-88.673-49.988-120.68-32.004-32.006-75.413-49.987-120.678-49.987s-88.673 17.981-120.68 49.987c-32.006 32.006-49.987 75.416-49.987 120.68s17.981 88.673 49.987 120.68c32.006 32.006 75.415 49.987 120.68 49.987s88.674-17.981 120.678-49.987c32.009-32.006 49.988-75.416 49.988-120.68zM1024 21.333c0-85.333-85.333-85.333-85.333-85.333h-853.333c0 0-85.333 0-85.333 85.333s85.333 341.333 512 341.333c426.667 0 512-256 512-341.333zM938.667 21.675c-0.085 20.992-13.141 84.139-70.997 141.995-55.637 55.637-160.341 113.664-355.669 113.664-195.413 0-300.032-58.027-355.669-113.664-57.856-57.856-70.827-121.003-70.997-141.995h853.333z" />
<glyph unicode="&#xe908;" glyph-name="search" d="M416 192c46.225 0 91.998 9.107 134.705 26.797s81.511 43.616 114.198 76.301c32.685 32.687 58.611 71.491 76.301 114.198s26.797 88.479 26.797 134.705c0 46.225-9.107 91.998-26.797 134.705s-43.616 81.511-76.301 114.197c-32.687 32.686-71.491 58.614-114.198 76.304s-88.479 26.794-134.705 26.794c-93.356 0-182.889-37.085-248.902-103.098s-103.098-155.546-103.098-248.902c0-93.356 37.085-182.889 103.098-248.902 66.013-66.010 155.546-103.098 248.902-103.098zM832 544c0-110.33-43.827-216.141-121.843-294.157s-183.827-121.843-294.157-121.843c-110.33 0-216.141 43.827-294.156 121.843s-121.844 183.827-121.844 294.157c0 110.33 43.828 216.141 121.844 294.156s183.826 121.844 294.156 121.844c110.33 0 216.141-43.828 294.157-121.844s121.843-183.826 121.843-294.156zM662.003 208.512c1.914-2.56 3.968-4.992 6.272-7.36l246.394-246.4c12.006-12.013 28.282-18.758 45.261-18.765s33.261 6.733 45.274 18.733c12.006 12 18.758 28.282 18.765 45.254 0 16.979-6.733 33.261-18.739 45.274l-246.394 246.4c-2.291 2.317-4.749 4.454-7.366 6.4-25.101-34.234-55.27-64.448-89.466-89.6v0.064z" />
<glyph unicode="&#xe909;" glyph-name="trash" d="M416 896h192c8.489 0 16.625-3.372 22.625-9.373 6.006-6.001 9.375-14.14 9.375-22.627v-64h-256v64c0 8.487 3.372 16.626 9.373 22.627s14.14 9.373 22.627 9.373zM704 800v64c0 25.461-10.112 49.879-28.119 67.882-18.002 18.004-42.419 28.118-67.881 28.118h-192c-25.461 0-49.879-10.114-67.882-28.118s-28.118-42.422-28.118-67.882v-64h-159.616c-0.214 0.002-0.426 0.002-0.64 0h-63.744c-8.487 0-16.626-3.372-22.627-9.373s-9.373-14.14-9.373-22.627c0-8.487 3.372-16.626 9.373-22.627s14.14-9.373 22.627-9.373h34.432l54.592-682.24c2.574-32.077 17.136-62.008 40.785-83.83s54.651-33.935 86.831-33.93h398.717c32.184-0.005 63.186 12.109 86.835 33.93s38.211 51.753 40.786 83.83l54.589 682.24h34.432c8.489 0 16.625 3.372 22.625 9.373 6.006 6.001 9.375 14.14 9.375 22.627s-3.369 16.626-9.375 22.627c-6.001 6.001-14.136 9.373-22.625 9.373h-63.677c-0.215 0.002-0.43 0.002-0.645 0h-159.677zM829.312 736l-54.144-677.12c-1.285-16.036-8.566-31.002-20.393-41.912-11.822-10.916-27.325-16.973-43.418-16.968h-398.717c-16.090-0.005-31.59 6.052-43.415 16.968-11.825 10.911-19.106 25.876-20.393 41.912l-54.144 677.12h634.624zM350.144 672c8.47 0.489 16.786-2.404 23.123-8.045s10.174-13.566 10.669-22.035l32-544c0.336-8.371-2.623-16.538-8.242-22.748-5.619-6.216-13.45-9.974-21.812-10.481-8.361-0.502-16.587 2.294-22.91 7.788-6.323 5.499-10.239 13.251-10.908 21.601l-32.064 544c-0.26 4.204 0.313 8.418 1.685 12.4s3.517 7.654 6.312 10.806c2.794 3.151 6.184 5.72 9.973 7.558s7.905 2.911 12.11 3.156h0.064zM673.859 672c4.204-0.245 8.32-1.317 12.109-3.156s7.178-4.407 9.974-7.558c2.79-3.151 4.936-6.824 6.308-10.806s1.946-8.196 1.684-12.4l-32-544c-0.169-4.255-1.188-8.428-2.99-12.283s-4.357-7.311-7.516-10.163c-3.154-2.857-6.851-5.053-10.865-6.461-4.014-1.413-8.274-2.007-12.524-1.751-4.244 0.256-8.402 1.357-12.216 3.236-3.82 1.884-7.224 4.506-10.015 7.716-2.79 3.215-4.915 6.953-6.246 10.993-1.326 4.045-1.838 8.31-1.495 12.554l32 544c0.492 8.469 4.332 16.395 10.665 22.035 6.339 5.641 14.653 8.534 23.127 8.045zM512 672c8.489 0 16.625-3.372 22.625-9.373 6.006-6.001 9.375-14.14 9.375-22.627v-544c0-8.489-3.369-16.625-9.375-22.625-6.001-6.006-14.136-9.375-22.625-9.375-8.487 0-16.626 3.369-22.627 9.375-6.001 6.001-9.373 14.136-9.373 22.625v544c0 8.487 3.372 16.626 9.373 22.627s14.14 9.373 22.627 9.373z" />
<glyph unicode="&#xe90a;" glyph-name="pencil-square" d="M992.108 835.84c5.98-5.999 9.339-14.122 9.339-22.592s-3.359-16.594-9.339-22.592l-66.749-66.816-128 128 66.749 66.816c6.001 5.999 14.141 9.369 22.625 9.369s16.625-3.37 22.625-9.369l82.749-82.816zM880.108 678.656l-128 128-436.030-436.096c-3.522-3.523-6.174-7.818-7.744-12.544l-51.52-154.496c-0.934-2.816-1.067-5.837-0.383-8.724s2.158-5.53 4.256-7.629c2.098-2.099 4.739-3.569 7.626-4.255 2.888-0.681 5.908-0.553 8.725 0.384l154.496 51.517c4.721 1.551 9.016 4.183 12.544 7.68l436.030 436.163zM64 96c0-25.462 10.114-49.879 28.118-67.881 18.004-18.007 42.422-28.119 67.882-28.119h704c25.462 0 49.879 10.112 67.881 28.119 18.007 18.002 28.119 42.419 28.119 67.881v384c0 8.487-3.369 16.626-9.375 22.627-6.001 6.001-14.136 9.373-22.625 9.373s-16.625-3.372-22.625-9.373c-6.006-6.001-9.375-14.14-9.375-22.627v-384c0-8.489-3.369-16.625-9.375-22.625-6.001-6.006-14.136-9.375-22.625-9.375h-704c-8.487 0-16.626 3.369-22.627 9.375-6.001 6.001-9.373 14.136-9.373 22.625v704c0 8.487 3.372 16.626 9.373 22.627s14.14 9.373 22.627 9.373h416c8.489 0 16.625 3.372 22.625 9.373 6.006 6.001 9.375 14.14 9.375 22.627s-3.369 16.626-9.375 22.627c-6.001 6.001-14.136 9.373-22.625 9.373h-416c-25.461 0-49.879-10.114-67.882-28.118s-28.118-42.422-28.118-67.882v-704z" />
<glyph unicode="&#xe90b;" glyph-name="list" d="M128 104.294c0 10.688 3.746 20.941 10.414 28.497s15.712 11.802 25.141 11.802h711.111c9.429 0 18.475-4.245 25.143-11.802 6.665-7.556 10.411-17.809 10.411-28.497 0-10.684-3.746-20.937-10.411-28.493-6.669-7.556-15.714-11.802-25.143-11.802h-711.111c-9.43 0-18.473 4.245-25.141 11.802s-10.414 17.809-10.414 28.493zM128 426.667c0 10.688 3.746 20.937 10.414 28.493s15.712 11.802 25.141 11.802h711.111c9.429 0 18.475-4.245 25.143-11.802 6.665-7.556 10.411-17.805 10.411-28.493s-3.746-20.937-10.411-28.493c-6.669-7.556-15.714-11.802-25.143-11.802h-711.111c-9.43 0-18.473 4.245-25.141 11.802s-10.414 17.805-10.414 28.493zM128 749.037c0 10.687 3.746 20.937 10.414 28.494s15.712 11.802 25.141 11.802h711.111c9.429 0 18.475-4.245 25.143-11.802 6.665-7.557 10.411-17.807 10.411-28.494s-3.746-20.937-10.411-28.494c-6.669-7.557-15.714-11.802-25.143-11.802h-711.111c-9.43 0-18.473 4.246-25.141 11.802s-10.414 17.807-10.414 28.494z" />
<glyph unicode="&#xe90c;" glyph-name="house" d="M557.249 864.002c-12 11.998-28.278 18.738-45.245 18.738-16.971 0-33.248-6.74-45.249-18.738l-425.409-425.344c-2.975-2.974-5.335-6.506-6.946-10.394s-2.439-8.054-2.439-12.26c0-4.21 0.829-8.377 2.439-12.264s3.97-7.42 6.946-10.394c6.009-6.010 14.158-9.385 22.656-9.385 4.207 0 8.374 0.831 12.261 2.442 3.887 1.607 7.42 3.97 10.395 6.944l41.344 41.409v-338.751c0-25.462 10.114-49.881 28.118-67.883s42.421-28.117 67.882-28.117h575.998c25.462 0 49.881 10.114 67.883 28.117s28.117 42.421 28.117 67.883v338.751l41.346-41.409c6.010-6.010 14.159-9.385 22.654-9.385 8.499 0 16.648 3.375 22.658 9.385s9.385 14.159 9.385 22.658c0 8.495-3.375 16.644-9.385 22.654l-150.658 150.592v210.752c0 8.487-3.371 16.626-9.37 22.628-6.002 6.001-14.143 9.372-22.63 9.372h-64c-8.483 0-16.624-3.371-22.626-9.372-5.998-6.001-9.374-14.141-9.374-22.628v-82.752l-146.751 146.752zM832 498.755v-402.751c0-8.487-3.371-16.628-9.37-22.63-6.002-5.998-14.143-9.37-22.63-9.37h-575.998c-8.487 0-16.626 3.371-22.627 9.37-6.001 6.002-9.373 14.143-9.373 22.63v402.751l320.002 319.999 319.996-319.999z" />
<glyph unicode="&#xe90d;" glyph-name="personal-data" horiz-adv-x="1365" d="M491.52 454.83c65.18 0 127.689 25.892 173.779 71.981 46.088 46.090 71.981 108.599 71.981 173.779s-25.894 127.689-71.981 173.778c-46.090 46.089-108.599 71.982-173.779 71.982s-127.689-25.893-173.778-71.982c-46.089-46.089-71.982-108.599-71.982-173.778s25.893-127.689 71.982-173.779c46.089-46.089 108.599-71.981 173.778-71.981zM655.36 700.59c0-43.453-17.262-85.126-47.987-115.853s-72.4-47.987-115.853-47.987c-43.453 0-85.126 17.262-115.853 47.987s-47.987 72.4-47.987 115.853c0 43.453 17.262 85.126 47.987 115.853s72.4 47.987 115.853 47.987c43.453 0 85.126-17.262 115.853-47.987s47.987-72.4 47.987-115.853zM983.040 45.227c0-81.92-81.92-81.92-81.92-81.92h-819.2c0 0-81.92 0-81.92 81.92s81.92 327.683 491.52 327.683c409.6 0 491.52-245.763 491.52-327.683zM901.12 45.554c-0.082 20.152-12.616 80.773-68.157 136.315-53.412 53.412-153.928 109.121-341.443 109.121-187.597 0-288.031-55.709-341.443-109.121-55.542-55.542-67.994-116.163-68.157-136.315h819.2zM983.033 796.498c0 10.773 4.028 21.105 11.196 28.722s16.896 11.897 27.034 11.897h305.835c10.138 0 19.866-4.28 27.034-11.897s11.196-17.949 11.196-28.722c0-10.772-4.028-21.104-11.196-28.722s-16.896-11.897-27.034-11.897h-305.835c-10.138 0-19.866 4.28-27.034 11.897s-11.196 17.949-11.196 28.722zM1021.263 593.405c-10.138 0-19.866-4.28-27.034-11.897s-11.196-17.949-11.196-28.722c0-10.772 4.028-21.104 11.196-28.722s16.896-11.897 27.034-11.897h305.835c10.138 0 19.866 4.28 27.034 11.897s11.196 17.949 11.196 28.722c0 10.772-4.028 21.105-11.196 28.722s-16.896 11.897-27.034 11.897h-305.835zM1174.18 349.693c-10.138 0-19.866-4.28-27.034-11.897s-11.196-17.949-11.196-28.722c0-10.772 4.028-21.104 11.196-28.722 7.168-7.62 16.896-11.893 27.034-11.893h152.917c10.138 0 19.866 4.273 27.034 11.893 7.168 7.618 11.196 17.949 11.196 28.722s-4.028 21.105-11.196 28.722c-7.168 7.617-16.896 11.897-27.034 11.897h-152.917zM1174.18 105.984c-10.138 0-19.866-4.28-27.034-11.899s-11.196-17.947-11.196-28.72c0-10.779 4.028-21.108 11.196-28.727s16.896-11.892 27.034-11.892h152.917c10.138 0 19.866 4.273 27.034 11.892s11.196 17.947 11.196 28.727c0 10.772-4.028 21.101-11.196 28.72s-16.896 11.899-27.034 11.899h-152.917z" />
<glyph unicode="&#xe90e;" glyph-name="truck" d="M0 736c0 25.461 10.114 49.879 28.118 67.882s42.422 28.118 67.882 28.118h576c25.462 0 49.879-10.114 67.881-28.118 18.007-18.004 28.119-42.422 28.119-67.882v-96h65.28c14.382-0.013 28.58-3.257 41.539-9.494 12.964-6.237 24.356-15.306 33.341-26.538l94.781-118.4c13.64-17.036 21.069-38.208 21.059-60.029v-137.539c0-25.462-10.112-49.879-28.119-67.881-18.002-18.007-42.419-28.119-67.881-28.119h-32c0-33.946-13.486-66.504-37.489-90.511-24.008-24.003-56.566-37.489-90.511-37.489s-66.504 13.486-90.511 37.489c-24.003 24.008-37.489 56.566-37.489 90.511h-320c0.037-17.060-3.338-33.956-9.925-49.695s-16.254-30.003-28.433-41.953c-12.179-11.945-26.623-21.34-42.485-27.628-15.861-6.282-32.819-9.334-49.876-8.97s-33.871 4.132-49.45 11.085c-15.58 6.953-29.613 16.952-41.272 29.409-11.66 12.452-20.712 27.116-26.625 43.121-5.913 16-8.566 33.029-7.804 50.068-18.749 6.6-34.987 18.857-46.474 35.077s-17.655 35.61-17.654 55.485v448zM82.816 258.816c11.571 18.944 27.873 34.55 47.302 45.286 19.43 10.742 41.318 16.236 63.516 15.954 22.197-0.287 43.938-6.344 63.087-17.572s35.045-27.249 46.128-46.484h354.304c11.259 19.441 27.407 35.589 46.848 46.848v433.152c0 8.487-3.369 16.626-9.375 22.627-6.001 6.001-14.136 9.373-22.625 9.373h-576c-8.487 0-16.626-3.372-22.627-9.373s-9.373-14.14-9.373-22.627v-448c-0.005-6.159 1.767-12.191 5.105-17.367s8.098-9.277 13.711-11.817zM768 320c22.467 0 44.539-5.914 64-17.152 19.456-11.233 35.615-27.392 46.848-46.848h49.152c8.489 0 16.625 3.369 22.625 9.375 6.006 6.001 9.375 14.136 9.375 22.625v137.6c-0.015 7.26-2.493 14.305-7.040 19.968l-94.72 118.4c-2.995 3.748-6.789 6.775-11.11 8.858s-9.052 3.168-13.85 3.174h-65.28v-256zM192 256c-16.974 0-33.252-6.743-45.255-18.744s-18.745-28.283-18.745-45.256c0-16.973 6.743-33.254 18.745-45.256s28.281-18.744 45.255-18.744c16.974 0 33.252 6.743 45.255 18.744s18.745 28.283 18.745 45.256c0 16.973-6.743 33.254-18.745 45.256s-28.281 18.744-45.255 18.744zM768 256c-16.973 0-33.254-6.743-45.256-18.744s-18.744-28.283-18.744-45.256c0-16.973 6.743-33.254 18.744-45.256s28.283-18.744 45.256-18.744c16.973 0 33.254 6.743 45.256 18.744s18.744 28.283 18.744 45.256c0 16.973-6.743 33.254-18.744 45.256s-28.283 18.744-45.256 18.744z" />
<glyph unicode="&#xe90f;" glyph-name="gear" d="M511.982 655.775c-27.283 0-54.299-5.374-79.505-15.815s-48.109-25.744-67.401-45.036c-19.292-19.292-34.595-42.195-45.036-67.401s-15.815-52.222-15.815-79.505c0-27.282 5.374-54.3 15.815-79.506s25.744-48.108 45.036-67.4c19.292-19.292 42.195-34.596 67.401-45.036s52.222-15.816 79.505-15.816c55.099 0 107.942 21.888 146.906 60.851s60.851 91.807 60.851 146.906c0 55.101-21.888 107.944-60.851 146.907s-91.807 60.851-146.906 60.851zM368.229 448.018c0 38.126 15.145 74.69 42.104 101.649s63.523 42.104 101.649 42.104c38.126 0 74.688-15.145 101.65-42.104 26.957-26.959 42.102-63.523 42.102-101.649s-15.145-74.688-42.102-101.65c-26.962-26.957-63.524-42.102-101.65-42.102s-74.69 15.145-101.649 42.102c-26.959 26.962-42.104 63.524-42.104 101.65zM626.949 874.075c-33.731 114.567-196.17 114.567-229.9 0l-6.017-20.417c-2.355-7.997-6.471-15.367-12.044-21.567s-12.464-11.075-20.166-14.266c-7.702-3.191-16.021-4.619-24.346-4.177s-16.447 2.74-23.769 6.728l-18.689 10.241c-104.967 57.092-219.726-57.732-162.57-162.634l10.177-18.689c3.987-7.322 6.286-15.443 6.728-23.769s-0.986-16.644-4.177-24.346c-3.191-7.702-8.066-14.593-14.266-20.166s-13.57-9.689-21.567-12.044l-20.417-6.017c-114.567-33.73-114.567-196.17 0-229.9l20.417-6.016c7.997-2.36 15.367-6.472 21.567-12.047 6.2-5.571 11.075-12.462 14.266-20.168 3.191-7.7 4.619-16.020 4.177-24.346s-2.74-16.445-6.728-23.767l-10.241-18.688c-57.092-104.965 57.668-219.791 162.634-162.57l18.689 10.173c7.322 3.988 15.443 6.287 23.769 6.728 8.325 0.445 16.644-0.983 24.346-4.173 7.702-3.195 14.593-8.069 20.166-14.269s9.689-13.568 12.044-21.565l6.017-20.419c33.73-114.565 196.17-114.565 229.9 0l6.016 20.419c2.36 7.997 6.472 15.365 12.047 21.565 5.571 6.2 12.462 11.075 20.168 14.269 7.7 3.19 16.020 4.618 24.346 4.173 8.325-0.44 16.445-2.739 23.767-6.728l18.688-10.24c104.965-57.155 219.791 57.733 162.57 162.637l-10.173 18.688c-3.988 7.322-6.287 15.442-6.728 23.767-0.445 8.325 0.983 16.645 4.173 24.346 3.195 7.706 8.069 14.597 14.269 20.168 6.2 5.576 13.568 9.687 21.565 12.047l20.419 6.016c114.565 33.731 114.565 196.17 0 229.9l-20.419 6.017c-7.997 2.355-15.365 6.471-21.565 12.044s-11.075 12.464-14.269 20.166c-3.19 7.702-4.618 16.021-4.173 24.346 0.44 8.326 2.739 16.447 6.728 23.769l10.24 18.689c57.155 104.967-57.733 219.726-162.637 162.57l-18.688-10.177c-7.322-3.987-15.442-6.286-23.767-6.728s-16.645 0.986-24.346 4.177c-7.706 3.191-14.597 8.066-20.168 14.266-5.576 6.2-9.687 13.57-12.047 21.567l-6.016 20.417zM458.428 855.962c15.745 53.443 91.398 53.443 107.142 0l6.016-20.418c5.059-17.158 13.891-32.968 25.856-46.268 11.96-13.301 26.747-23.756 43.274-30.599s34.376-9.901 52.239-8.948c17.864 0.952 35.287 5.89 50.995 14.452l18.627 10.241c48.896 26.562 102.405-26.882 75.776-75.845l-10.173-18.69c-8.55-15.708-13.476-33.13-14.418-50.989s2.125-35.702 8.975-52.222c6.845-16.521 17.306-31.299 30.607-43.254s29.107-20.781 46.264-25.833l20.352-6.016c53.443-15.745 53.443-91.398 0-107.142l-20.419-6.016c-17.157-5.059-32.968-13.891-46.269-25.856-13.297-11.96-23.752-26.747-30.597-43.274-6.84-16.527-9.902-34.376-8.95-52.239s5.893-35.287 14.454-50.995l10.24-18.627c26.563-48.896-26.88-102.405-75.843-75.776l-18.627 10.173c-15.713 8.561-33.142 13.496-51.005 14.444-17.869 0.947-35.717-2.115-52.25-8.965-16.527-6.845-31.314-17.311-43.269-30.618-11.96-13.307-20.787-29.123-25.841-46.29l-6.016-20.352c-15.744-53.443-91.397-53.443-107.142 0l-6.016 20.419c-5.060 17.147-13.892 32.947-25.849 46.244-11.957 13.292-26.737 23.747-43.256 30.587s-34.361 9.902-52.216 8.955c-17.855-0.947-35.273-5.873-50.977-14.423l-18.69-10.24c-48.899-26.563-102.406 26.88-75.781 75.843l10.177 18.627c8.573 15.708 13.521 33.137 14.48 51.011 0.958 17.869-2.097 35.727-8.941 52.265s-17.304 31.329-30.611 43.295c-13.307 11.965-29.125 20.803-46.292 25.856l-20.418 6.016c-53.443 15.749-53.443 91.4 0 107.145l20.418 6.016c17.141 5.062 32.932 13.893 46.22 25.846s23.734 26.725 30.576 43.237c6.841 16.511 9.904 34.343 8.965 52.191s-5.858 35.259-14.396 50.961l-10.241 18.69c-26.562 48.899 26.882 102.406 75.845 75.781l18.69-10.177c15.704-8.549 33.122-13.478 50.977-14.424s35.696 2.114 52.216 8.956c16.519 6.842 31.299 17.293 43.256 30.587s20.789 29.094 25.849 46.244l6.016 20.418z" />
<glyph unicode="&#xe910;" glyph-name="message" d="M189.76 157.947c0.897 10.040-0.285 20.168-3.46 29.665-3.175 9.492-8.265 18.125-14.908 25.267-67.84 72.97-107.392 166.38-107.392 267.055 0 218.91 192.256 411.485 448 411.485s448-192.575 448-411.485c0-218.978-192.256-411.485-448-411.485-45.113-0.072-90.041 6.2-133.632 18.652-15.234 4.378-31.438 2.57-45.504-5.074-24.768-13.44-79.36-39.091-168.576-61.24 12.447 44.774 20.974 90.691 25.472 137.16zM138.56-55.204l1.28 0.276c117.12 24.893 188.672 57.743 221.952 75.781 48.997-14.003 99.497-21.059 150.208-20.987 282.752 0 512 214.932 512 480.067s-229.248 480.066-512 480.066-512-214.932-512-480.066c0-120.705 47.552-231.117 126.080-315.469-5.494-54.19-16.745-107.525-33.536-158.971l-0.192-0.758c-4.772-14.735-9.979-29.302-15.616-43.684-5.056-12.759 4.736-27.023 17.472-24.827 14.826 2.601 29.613 5.458 44.352 8.571z" />
<glyph unicode="&#xe911;" glyph-name="card" d="M0 704c0 33.948 13.486 66.505 37.49 90.51s56.562 37.49 90.51 37.49h768c33.946 0 66.504-13.486 90.511-37.49 24.003-24.005 37.489-56.562 37.489-90.51v-512c0-33.946-13.486-66.504-37.489-90.511-24.008-24.003-56.566-37.489-90.511-37.489h-768c-33.948 0-66.505 13.486-90.51 37.489-24.005 24.008-37.49 56.566-37.49 90.511v512zM128 768c-16.974 0-33.252-6.743-45.255-18.745s-18.745-28.281-18.745-45.255v-64h896v64c0 16.974-6.743 33.252-18.744 45.255s-28.283 18.745-45.256 18.745h-768zM960 512h-896v-320c0-16.973 6.743-33.254 18.745-45.256s28.281-18.744 45.255-18.744h768c16.973 0 33.254 6.743 45.256 18.744s18.744 28.283 18.744 45.256v320zM128 320c0 16.973 6.743 33.254 18.745 45.256s28.281 18.744 45.255 18.744h64c16.974 0 33.252-6.743 45.255-18.744s18.745-28.283 18.745-45.256v-64c0-16.973-6.743-33.254-18.745-45.256s-28.281-18.744-45.255-18.744h-64c-16.974 0-33.252 6.743-45.255 18.744s-18.745 28.283-18.745 45.256v64z" />
<glyph unicode="&#xe912;" glyph-name="box-arrow-right" horiz-adv-x="975" d="M609.524 173.714c0-8.085-3.209-15.833-8.928-21.548-5.715-5.72-13.463-8.928-21.548-8.928h-487.619c-8.083 0-15.834 3.209-21.55 8.928-5.715 5.715-8.926 13.463-8.926 21.548v548.571c0 8.083 3.211 15.834 8.926 21.55s13.467 8.926 21.55 8.926h487.619c8.085 0 15.833-3.211 21.548-8.926 5.72-5.715 8.928-13.467 8.928-21.55v-121.905c0-8.083 3.209-15.834 8.928-21.55 5.715-5.715 13.463-8.926 21.548-8.926s15.833 3.211 21.548 8.926c5.72 5.715 8.928 13.467 8.928 21.55v121.905c0 24.248-9.63 47.503-26.78 64.65-17.145 17.146-40.399 26.779-64.649 26.779h-487.619c-24.248 0-47.504-9.632-64.65-26.779s-26.779-40.402-26.779-64.65v-548.571c0-24.249 9.633-47.504 26.779-64.649 17.146-17.15 40.401-26.78 64.65-26.78h487.619c24.249 0 47.504 9.63 64.649 26.78 17.15 17.145 26.78 40.399 26.78 64.649v121.905c0 8.085-3.209 15.833-8.928 21.548-5.715 5.72-13.463 8.928-21.548 8.928s-15.833-3.209-21.548-8.928c-5.72-5.715-8.928-13.463-8.928-21.548v-121.905zM966.339 426.418c2.838 2.833 5.091 6.198 6.627 9.899s2.326 7.67 2.326 11.678c0 4.013-0.79 7.982-2.326 11.683s-3.789 7.066-6.627 9.894l-182.857 182.859c-5.725 5.723-13.483 8.938-21.577 8.938s-15.852-3.215-21.577-8.938c-5.725-5.723-8.938-13.484-8.938-21.577s3.213-15.854 8.938-21.577l130.867-130.804h-535.957c-8.083 0-15.834-3.211-21.55-8.925s-8.926-13.468-8.926-21.553c0-8.080 3.211-15.833 8.926-21.548s13.467-8.928 21.55-8.928h535.957l-130.867-130.804c-5.725-5.72-8.938-13.483-8.938-21.577 0-8.090 3.213-15.852 8.938-21.577 5.725-5.72 13.483-8.933 21.577-8.933s15.852 3.213 21.577 8.933l182.857 182.857z" />
<glyph unicode="&#xe913;" glyph-name="tg" d="M408.698 325.837l-15.882-214.426c22.72 0 32.56 9.37 44.362 20.621l106.522 97.728 220.726-155.174c40.48-21.658 69.002-10.253 79.92 35.75l144.883 651.722 0.042 0.038c12.842 57.446-21.642 79.91-61.082 65.817l-851.62-312.996c-58.122-21.658-57.242-52.762-9.88-66.854l217.725-65.011 505.731 303.78c23.802 15.129 45.443 6.758 27.642-8.371l-409.088-352.625z" />
<glyph unicode="&#xe914;" glyph-name="down" horiz-adv-x="945" d="M847.998 646.13c2.749-2.744 4.931-6.004 6.42-9.593s2.253-7.436 2.253-11.321c0-3.886-0.764-7.733-2.253-11.322s-3.671-6.848-6.42-9.592l-354.465-354.462c-2.744-2.751-6.003-4.933-9.592-6.423s-7.436-2.255-11.322-2.255c-3.885 0-7.732 0.766-11.321 2.255s-6.848 3.671-9.593 6.423l-354.462 354.462c-5.546 5.546-8.662 13.069-8.662 20.913s3.116 15.366 8.662 20.913c5.547 5.546 13.069 8.662 20.913 8.662s15.367-3.116 20.913-8.662l333.548-333.607 333.551 333.607c2.741 2.751 6.002 4.933 9.586 6.422 3.592 1.49 7.436 2.256 11.327 2.256 3.883 0 7.727-0.766 11.319-2.256 3.584-1.489 6.845-3.671 9.594-6.422z" />
<glyph unicode="&#xe915;" glyph-name="heart-fill" d="M511.986 870.295c284.030 311.431 994.174-233.54 0-934.295-994.176 700.687-284.032 1245.726 0 934.295z" />
</font>
</defs>
</svg>
